  0
SECTION
  2
HEADER
  9
$ACADVER
  1
AC1014
  9
$ACADMAINTVER
 70
     9
  9
$DWGCODEPAGE
  3
ANSI_1252
  9
$INSBASE
 10
0.0
 20
0.0
 30
0.0
  9
$EXTMIN
 10
1.8813187262508
 20
5.409769027112594
 30
0.0
  9
$EXTMAX
 10
10.01569269236804
 20
9.153418718090541
 30
0.0
  9
$LIMMIN
 10
0.0
 20
0.0
  9
$LIMMAX
 10
12.0
 20
9.0
  9
$ORTHOMODE
 70
     0
  9
$REGENMODE
 70
     1
  9
$FILLMODE
 70
     1
  9
$QTEXTMODE
 70
     0
  9
$MIRRTEXT
 70
     1
  9
$DRAGMODE
 70
     2
  9
$LTSCALE
 40
1.0
  9
$OSMODE
 70
     0
  9
$ATTMODE
 70
     1
  9
$TEXTSIZE
 40
0.2
  9
$TRACEWID
 40
0.05
  9
$TEXTSTYLE
  7
STANDARD
  9
$CLAYER
  8
0
  9
$CELTYPE
  6
BYLAYER
  9
$CECOLOR
 62
   256
  9
$CELTSCALE
 40
1.0
  9
$DELOBJ
 70
     1
  9
$DISPSILH
 70
     0
  9
$DIMSCALE
 40
1.0
  9
$DIMASZ
 40
0.18
  9
$DIMEXO
 40
0.0625
  9
$DIMDLI
 40
0.38
  9
$DIMRND
 40
0.0
  9
$DIMDLE
 40
0.0
  9
$DIMEXE
 40
0.18
  9
$DIMTP
 40
0.0
  9
$DIMTM
 40
0.0
  9
$DIMTXT
 40
0.18
  9
$DIMCEN
 40
0.09
  9
$DIMTSZ
 40
0.0
  9
$DIMTOL
 70
     0
  9
$DIMLIM
 70
     0
  9
$DIMTIH
 70
     1
  9
$DIMTOH
 70
     1
  9
$DIMSE1
 70
     0
  9
$DIMSE2
 70
     0
  9
$DIMTAD
 70
     0
  9
$DIMZIN
 70
     0
  9
$DIMBLK
  1

  9
$DIMASO
 70
     1
  9
$DIMSHO
 70
     1
  9
$DIMPOST
  1

  9
$DIMAPOST
  1

  9
$DIMALT
 70
     0
  9
$DIMALTD
 70
     2
  9
$DIMALTF
 40
25.4
  9
$DIMLFAC
 40
1.0
  9
$DIMTOFL
 70
     0
  9
$DIMTVP
 40
0.0
  9
$DIMTIX
 70
     0
  9
$DIMSOXD
 70
     0
  9
$DIMSAH
 70
     0
  9
$DIMBLK1
  1

  9
$DIMBLK2
  1

  9
$DIMSTYLE
  2
STANDARD
  9
$DIMCLRD
 70
     0
  9
$DIMCLRE
 70
     0
  9
$DIMCLRT
 70
     0
  9
$DIMTFAC
 40
1.0
  9
$DIMGAP
 40
0.09
  9
$DIMJUST
 70
     0
  9
$DIMSD1
 70
     0
  9
$DIMSD2
 70
     0
  9
$DIMTOLJ
 70
     1
  9
$DIMTZIN
 70
     0
  9
$DIMALTZ
 70
     0
  9
$DIMALTTZ
 70
     0
  9
$DIMFIT
 70
     3
  9
$DIMUPT
 70
     0
  9
$DIMUNIT
 70
     2
  9
$DIMDEC
 70
     2
  9
$DIMTDEC
 70
     2
  9
$DIMALTU
 70
     2
  9
$DIMALTTD
 70
     2
  9
$DIMTXSTY
  7
STANDARD
  9
$DIMAUNIT
 70
     0
  9
$LUNITS
 70
     2
  9
$LUPREC
 70
     4
  9
$SKETCHINC
 40
0.1
  9
$FILLETRAD
 40
0.5
  9
$AUNITS
 70
     0
  9
$AUPREC
 70
     0
  9
$MENU
  1
.
  9
$ELEVATION
 40
0.0
  9
$PELEVATION
 40
0.0
  9
$THICKNESS
 40
0.0
  9
$LIMCHECK
 70
     0
  9
$BLIPMODE
 70
     0
  9
$CHAMFERA
 40
0.5
  9
$CHAMFERB
 40
0.5
  9
$CHAMFERC
 40
1.0
  9
$CHAMFERD
 40
0.0
  9
$SKPOLY
 70
     0
  9
$TDCREATE
 40
2452317.329168981
  9
$TDUPDATE
 40
2452642.590532291
  9
$TDINDWG
 40
0.0014283565
  9
$TDUSRTIMER
 40
0.0014283565
  9
$USRTIMER
 70
     1
  9
$ANGBASE
 50
0.0
  9
$ANGDIR
 70
     0
  9
$PDMODE
 70
     0
  9
$PDSIZE
 40
0.0
  9
$PLINEWID
 40
0.0
  9
$COORDS
 70
     1
  9
$SPLFRAME
 70
     0
  9
$SPLINETYPE
 70
     6
  9
$SPLINESEGS
 70
     8
  9
$ATTDIA
 70
     1
  9
$ATTREQ
 70
     1
  9
$HANDLING
 70
-16383
  9
$HANDSEED
  5
20B
  9
$SURFTAB1
 70
     6
  9
$SURFTAB2
 70
     6
  9
$SURFTYPE
 70
     6
  9
$SURFU
 70
     6
  9
$SURFV
 70
     6
  9
$UCSNAME
  2

  9
$UCSORG
 10
0.0
 20
0.0
 30
0.0
  9
$UCSXDIR
 10
1.0
 20
0.0
 30
0.0
  9
$UCSYDIR
 10
0.0
 20
1.0
 30
0.0
  9
$PUCSNAME
  2

  9
$PUCSORG
 10
0.0
 20
0.0
 30
0.0
  9
$PUCSXDIR
 10
1.0
 20
0.0
 30
0.0
  9
$PUCSYDIR
 10
0.0
 20
1.0
 30
0.0
  9
$USERI1
 70
     0
  9
$USERI2
 70
     0
  9
$USERI3
 70
     0
  9
$USERI4
 70
     0
  9
$USERI5
 70
     0
  9
$USERR1
 40
0.0
  9
$USERR2
 40
0.0
  9
$USERR3
 40
0.0
  9
$USERR4
 40
0.0
  9
$USERR5
 40
0.0
  9
$WORLDVIEW
 70
     1
  9
$SHADEDGE
 70
     3
  9
$SHADEDIF
 70
    70
  9
$TILEMODE
 70
     1
  9
$MAXACTVP
 70
    64
  9
$PINSBASE
 10
0.0
 20
0.0
 30
0.0
  9
$PLIMCHECK
 70
     0
  9
$PEXTMIN
 10
1.000000000000000E+20
 20
1.000000000000000E+20
 30
1.000000000000000E+20
  9
$PEXTMAX
 10
-1.000000000000000E+20
 20
-1.000000000000000E+20
 30
-1.000000000000000E+20
  9
$PLIMMIN
 10
0.0
 20
0.0
  9
$PLIMMAX
 10
12.0
 20
9.0
  9
$UNITMODE
 70
     0
  9
$VISRETAIN
 70
     1
  9
$PLINEGEN
 70
     0
  9
$PSLTSCALE
 70
     1
  9
$TREEDEPTH
 70
  3020
  9
$PICKSTYLE
 70
     1
  9
$CMLSTYLE
  2
STANDARD
  9
$CMLJUST
 70
     0
  9
$CMLSCALE
 40
1.0
  9
$PROXYGRAPHICS
 70
     1
  9
$MEASUREMENT
 70
     0
  0
ENDSEC
  0
SECTION
  2
CLASSES
  0
CLASS
  1
ACDBDICTIONARYWDFLT
  2
AcDbDictionaryWithDefault
  3
AutoCAD 2000
 90
        0
280
     0
281
     0
  0
CLASS
  1
ACDBPLACEHOLDER
  2
AcDbPlaceHolder
  3
AutoCAD 2000
 90
        0
280
     0
281
     0
  0
CLASS
  1
LAYOUT
  2
AcDbLayout
  3
AutoCAD 2000
 90
        0
280
     0
281
     0
  0
CLASS
  1
LONG_TRANSACTION
  2
AcDbLongTransaction
  3
AutoCAD 2000
 90
        0
280
     0
281
     0
  0
CLASS
  1
LWPOLYLINE
  2
AcDbPolyline
  3
AutoCAD 2000
 90
        0
280
     0
281
     1
  0
CLASS
  1
HATCH
  2
AcDbHatch
  3
AutoCAD 2000
 90
        0
280
     0
281
     1
  0
CLASS
  1
XRECORD
  2
AcDbXrecord
  3
AutoCAD 2000
 90
        0
280
     0
281
     0
  0
ENDSEC
  0
SECTION
  2
TABLES
  0
TABLE
  2
VPORT
  5
8
330
0
100
AcDbSymbolTable
 70
     3
  0
VPORT
  5
1E4
330
8
100
AcDbSymbolTableRecord
100
AcDbViewportTableRecord
  2
*ACTIVE
 70
     0
 10
0.0
 20
0.0
 11
1.0
 21
1.0
 12
6.217350883937256
 22
6.683823505401115
 13
0.0
 23
0.0
 14
0.5
 24
0.5
 15
0.5
 25
0.5
 16
0.0
 26
0.0
 36
1.0
 17
0.0
 27
0.0
 37
0.0
 40
8.99999999161816
 41
1.462515883100381
 42
50.0
 43
0.0
 44
0.0
 50
0.0
 51
0.0
 71
     0
 72
   100
 73
     1
 74
     3
 75
     0
 76
     0
 77
     0
 78
     0
  0
ENDTAB
  0
TABLE
  2
LTYPE
  5
5
330
0
100
AcDbSymbolTable
 70
     1
  0
LTYPE
  5
14
330
5
100
AcDbSymbolTableRecord
100
AcDbLinetypeTableRecord
  2
BYBLOCK
 70
     0
  3

 72
    65
 73
     0
 40
0.0
  0
LTYPE
  5
15
330
5
100
AcDbSymbolTableRecord
100
AcDbLinetypeTableRecord
  2
BYLAYER
 70
     0
  3

 72
    65
 73
     0
 40
0.0
  0
LTYPE
  5
16
330
5
100
AcDbSymbolTableRecord
100
AcDbLinetypeTableRecord
  2
CONTINUOUS
 70
     0
  3
Solid line
 72
    65
 73
     0
 40
0.0
  0
ENDTAB
  0
TABLE
  2
LAYER
  5
2
330
0
100
AcDbSymbolTable
 70
     5
  0
LAYER
  5
10
330
2
100
AcDbSymbolTableRecord
100
AcDbLayerTableRecord
  2
0
 70
     0
 62
     7
  6
CONTINUOUS
  0
LAYER
  5
34
330
2
100
AcDbSymbolTableRecord
100
AcDbLayerTableRecord
  2
L
 70
     0
 62
     7
  6
CONTINUOUS
  0
LAYER
  5
45
330
2
100
AcDbSymbolTableRecord
100
AcDbLayerTableRecord
  2
DEFPOINTS
 70
     0
 62
     7
  6
CONTINUOUS
  0
LAYER
  5
88
330
2
100
AcDbSymbolTableRecord
100
AcDbLayerTableRecord
  2
TX
 70
     0
 62
   150
  6
CONTINUOUS
  0
LAYER
  5
B5
330
2
100
AcDbSymbolTableRecord
100
AcDbLayerTableRecord
  2
MAIN
 70
     0
 62
     7
  6
CONTINUOUS
  0
ENDTAB
  0
TABLE
  2
STYLE
  5
3
330
0
100
AcDbSymbolTable
 70
     3
  0
STYLE
  5
11
330
3
100
AcDbSymbolTableRecord
100
AcDbTextStyleTableRecord
  2
STANDARD
 70
     0
 40
0.0
 41
1.0
 50
0.0
 71
     0
 42
0.2
  3
txt
  4

  0
STYLE
  5
35
330
3
100
AcDbSymbolTableRecord
100
AcDbTextStyleTableRecord
  2
REG
 70
     0
 40
0.0
 41
1.0
 50
0.0
 71
     0
 42
0.09375
  3
E:\R13\com\fonts\ARCHITXT.SHX
  4

  0
STYLE
  5
36
330
3
100
AcDbSymbolTableRecord
100
AcDbTextStyleTableRecord
  2
DIMTXT
 70
     0
 40
0.0
 41
1.0
 50
0.0
 71
     0
 42
1.125
  3
archt.shx
  4

  0
ENDTAB
  0
TABLE
  2
VIEW
  5
6
330
0
100
AcDbSymbolTable
 70
     0
  0
ENDTAB
  0
TABLE
  2
UCS
  5
7
330
0
100
AcDbSymbolTable
 70
     0
  0
ENDTAB
  0
TABLE
  2
APPID
  5
9
330
0
100
AcDbSymbolTable
 70
     1
  0
APPID
  5
12
330
9
100
AcDbSymbolTableRecord
100
AcDbRegAppTableRecord
  2
ACAD
 70
     0
  0
ENDTAB
  0
TABLE
  2
DIMSTYLE
  5
A
330
0
100
AcDbSymbolTable
 70
     6
  0
DIMSTYLE
105
27
102
{ACAD_REACTORS
330
C2
330
D0
102
}
330
A
100
AcDbSymbolTableRecord
100
AcDbDimStyleTableRecord
  2
STANDARD
 70
     0
  3

  4

  5

  6

  7

 40
1.0
 41
0.18
 42
0.0625
 43
0.38
 44
0.18
 45
0.0
 46
0.0
 47
0.0
 48
0.0
140
0.18
141
0.09
142
0.0
143
25.4
144
1.0
145
0.0
146
1.0
147
0.09
 71
     0
 72
     0
 73
     1
 74
     1
 75
     0
 76
     0
 77
     0
 78
     0
170
     0
171
     2
172
     0
173
     0
174
     0
175
     0
176
     0
177
     0
178
     0
270
     2
271
     2
272
     2
273
     2
274
     2
340
11
275
     0
280
     0
281
     0
282
     0
283
     1
284
     0
285
     0
286
     0
287
     3
288
     0
  0
DIMSTYLE
105
37
330
A
100
AcDbSymbolTableRecord
100
AcDbDimStyleTableRecord
  2
1
 70
     0
  3

  4

  5

  6

  7

 40
1.0
 41
1.125
 42
0.5
 43
0.375
 44
1.19921875
 45
0.0
 46
0.5
 47
0.0
 48
0.0
140
1.125
141
0.125
142
0.0
143
25.4
144
1.0
145
0.0
146
0.8
147
0.5625
 71
     0
 72
     0
 73
     0
 74
     0
 75
     0
 76
     0
 77
     1
 78
     3
170
     0
171
     2
172
     1
173
     0
174
     1
175
     0
176
   133
177
   133
178
   150
270
     2
271
     3
272
     3
273
     2
274
     2
340
36
275
     0
280
     0
281
     0
282
     0
283
     1
284
     0
285
     0
286
     0
287
     4
288
     0
  0
DIMSTYLE
105
38
330
A
100
AcDbSymbolTableRecord
100
AcDbDimStyleTableRecord
  2
1$2
 70
     0
  3

  4

  5
DOTSMALL
  6

  7

 40
1.0
 41
1.5
 42
0.5
 43
0.375
 44
1.19921875
 45
0.0
 46
0.5
 47
0.0
 48
0.0
140
0.75
141
0.125
142
0.0
143
25.4
144
1.0
145
0.0
146
0.8
147
0.5625
 71
     0
 72
     0
 73
     0
 74
     0
 75
     0
 76
     0
 77
     1
 78
     3
170
     0
171
     2
172
     1
173
     0
174
     1
175
     0
176
   133
177
   133
178
   150
270
     2
271
     3
272
     3
273
     2
274
     2
340
36
275
     0
280
     0
281
     0
282
     0
283
     1
284
     0
285
     0
286
     0
287
     4
288
     0
  0
DIMSTYLE
105
39
330
A
100
AcDbSymbolTableRecord
100
AcDbDimStyleTableRecord
  2
1$4
 70
     0
  3

  4

  5

  6

  7
DOTSMALL
 40
1.0
 41
1.5
 42
0.5
 43
0.375
 44
1.19921875
 45
0.0
 46
0.5
 47
0.0
 48
0.0
140
0.75
141
0.125
142
0.0
143
25.4
144
1.0
145
0.0
146
0.8
147
0.5625
 71
     0
 72
     0
 73
     0
 74
     0
 75
     0
 76
     0
 77
     1
 78
     3
170
     0
171
     2
172
     1
173
     1
174
     1
175
     0
176
   133
177
   133
178
   150
270
     2
271
     3
272
     3
273
     2
274
     2
340
36
275
     0
280
     0
281
     0
282
     0
283
     1
284
     0
285
     0
286
     0
287
     4
288
     0
  0
DIMSTYLE
105
3A
330
A
100
AcDbSymbolTableRecord
100
AcDbDimStyleTableRecord
  2
1$3
 70
     0
  3

  4

  5
DOTSMALL
  6

  7

 40
1.0
 41
1.5
 42
0.5
 43
0.375
 44
1.19921875
 45
0.0
 46
0.5
 47
0.0
 48
0.0
140
0.75
141
0.125
142
0.0
143
25.4
144
1.0
145
0.0
146
0.8
147
0.5625
 71
     0
 72
     0
 73
     0
 74
     0
 75
     0
 76
     0
 77
     1
 78
     3
170
     0
171
     2
172
     1
173
     0
174
     1
175
     0
176
   133
177
   133
178
   150
270
     2
271
     3
272
     3
273
     2
274
     2
340
36
275
     0
280
     0
281
     0
282
     0
283
     1
284
     0
285
     0
286
     0
287
     4
288
     0
  0
DIMSTYLE
105
3B
330
A
100
AcDbSymbolTableRecord
100
AcDbDimStyleTableRecord
  2
1$7
 70
     0
  3

  4

  5

  6

  7

 40
1.0
 41
1.0
 42
0.5
 43
0.375
 44
1.19921875
 45
0.0
 46
0.5
 47
0.0
 48
0.0
140
0.75
141
0.125
142
0.0
143
25.4
144
1.0
145
0.0
146
0.8
147
0.5625
 71
     0
 72
     0
 73
     0
 74
     0
 75
     0
 76
     0
 77
     1
 78
     3
170
     0
171
     2
172
     1
173
     0
174
     1
175
     0
176
   133
177
   133
178
   150
270
     2
271
     3
272
     3
273
     2
274
     2
340
36
275
     0
280
     0
281
     0
282
     0
283
     1
284
     0
285
     0
286
     0
287
     4
288
     0
  0
ENDTAB
  0
TABLE
  2
BLOCK_RECORD
  5
1
330
0
100
AcDbSymbolTable
 70
     5
  0
BLOCK_RECORD
  5
1F
102
{ACAD_XDICTIONARY
360
207
102
}
330
1
100
AcDbSymbolTableRecord
100
AcDbBlockTableRecord
  2
*MODEL_SPACE
  0
BLOCK_RECORD
  5
1B
102
{ACAD_XDICTIONARY
360
205
102
}
330
1
100
AcDbSymbolTableRecord
100
AcDbBlockTableRecord
  2
*PAPER_SPACE
  0
BLOCK_RECORD
  5
2B
330
1
100
AcDbSymbolTableRecord
100
AcDbBlockTableRecord
  2
_DOT
  0
BLOCK_RECORD
  5
30
330
1
100
AcDbSymbolTableRecord
100
AcDbBlockTableRecord
  2
_DOTSMALL
  0
BLOCK_RECORD
  5
C3
330
1
100
AcDbSymbolTableRecord
100
AcDbBlockTableRecord
  2
*D3
  0
BLOCK_RECORD
  5
D1
330
1
100
AcDbSymbolTableRecord
100
AcDbBlockTableRecord
  2
*D4
  0
ENDTAB
  0
ENDSEC
  0
SECTION
  2
BLOCKS
  0
BLOCK
  5
20
330
1F
100
AcDbEntity
  8
0
100
AcDbBlockBegin
  2
*MODEL_SPACE
 70
     0
 10
0.0
 20
0.0
 30
0.0
  3
*MODEL_SPACE
  1

  0
ENDBLK
  5
21
330
1F
100
AcDbEntity
  8
0
100
AcDbBlockEnd
  0
BLOCK
  5
1C
330
1B
100
AcDbEntity
 67
     1
  8
0
100
AcDbBlockBegin
  2
*PAPER_SPACE
 70
     0
 10
0.0
 20
0.0
 30
0.0
  3
*PAPER_SPACE
  1

  0
ENDBLK
  5
1D
330
1B
100
AcDbEntity
 67
     1
  8
0
100
AcDbBlockEnd
  0
BLOCK
  5
2E
330
2B
100
AcDbEntity
  8
0
100
AcDbBlockBegin
  2
_DOT
 70
     0
 10
0.0
 20
0.0
 30
0.0
  3
_DOT
  1

  0
LWPOLYLINE
  5
2C
330
2B
100
AcDbEntity
  8
L
 62
     0
100
AcDbPolyline
 90
        2
 70
     1
 43
0.5
 10
-0.25
 20
0.0
 42
1.0
 10
0.25
 20
0.0
 42
1.0
  0
LINE
  5
2D
330
2B
100
AcDbEntity
  8
L
 62
     0
100
AcDbLine
 10
-0.5
 20
0.0
 30
0.0
 11
-1.0
 21
0.0
 31
0.0
  0
ENDBLK
  5
2F
330
2B
100
AcDbEntity
  8
0
100
AcDbBlockEnd
  0
BLOCK
  5
32
330
30
100
AcDbEntity
  8
0
 48
0.116666
100
AcDbBlockBegin
  2
_DOTSMALL
 70
     0
 10
0.0
 20
0.0
 30
0.0
  3
_DOTSMALL
  1

  0
LWPOLYLINE
  5
31
330
30
100
AcDbEntity
  8
0
  6
BYBLOCK
 62
     0
100
AcDbPolyline
 90
        2
 70
     1
 43
0.5
 10
-0.0625
 20
0.0
 42
1.0
 10
0.0625
 20
0.0
 42
1.0
  0
ENDBLK
  5
33
330
30
100
AcDbEntity
  8
0
 48
0.116666
100
AcDbBlockEnd
  0
BLOCK
  5
CE
330
C3
100
AcDbEntity
  8
0
100
AcDbBlockBegin
  2
*D3
 70
     1
 10
0.0
 20
0.0
 30
0.0
  3
*D3
  1

  0
LINE
  5
C4
330
C3
100
AcDbEntity
  8
0
 62
     0
100
AcDbLine
 10
3.011550556744381
 20
8.466999078379387
 30
0.0
 11
3.011550556744381
 21
9.153418718090541
 31
0.0
  0
LINE
  5
C5
330
C3
100
AcDbEntity
  8
0
 62
     0
100
AcDbLine
 10
10.01155055674438
 20
8.538999078378139
 30
0.0
 11
10.01155055674438
 21
9.153418718090541
 31
0.0
  0
LINE
  5
C6
330
C3
100
AcDbEntity
  8
0
 62
     0
100
AcDbLine
 10
3.191550556744382
 20
8.973418718090542
 30
0.0
 11
6.181550556744381
 21
8.973418718090542
 31
0.0
  0
LINE
  5
C7
330
C3
100
AcDbEntity
  8
0
 62
     0
100
AcDbLine
 10
9.831550556744382
 20
8.973418718090542
 30
0.0
 11
6.841550556744381
 21
8.973418718090542
 31
0.0
  0
SOLID
  5
C8
330
C3
100
AcDbEntity
  8
0
 62
     0
100
AcDbTrace
 10
3.191550556744382
 20
9.003418718090541
 30
0.0
 11
3.191550556744382
 21
8.943418718090542
 31
0.0
 12
3.011550556744381
 22
8.973418718090542
 32
0.0
 13
3.011550556744381
 23
8.973418718090542
 33
0.0
  0
SOLID
  5
C9
330
C3
100
AcDbEntity
  8
0
 62
     0
100
AcDbTrace
 10
9.831550556744382
 20
9.003418718090541
 30
0.0
 11
9.831550556744382
 21
8.943418718090542
 31
0.0
 12
10.01155055674438
 22
8.973418718090542
 32
0.0
 13
10.01155055674438
 23
8.973418718090542
 33
0.0
  0
MTEXT
  5
CA
330
C3
100
AcDbEntity
  8
0
 62
     0
100
AcDbMText
 10
6.511550556744381
 20
8.973418718090542
 30
0.0
 40
0.18
 41
0.0
 71
     5
 72
     1
  1
\A1;7.00
1001
ACAD
1000
MTEXTBEGIN
1070
    73
1070
     1
1070
    44
1040
1.0
1070
    74
1070
     0
1000
MTEXTEND
  0
POINT
  5
CB
330
C3
100
AcDbEntity
  8
DEFPOINTS
 62
     0
100
AcDbPoint
 10
3.011550556744381
 20
8.404499078379387
 30
0.0
  0
POINT
  5
CC
330
C3
100
AcDbEntity
  8
DEFPOINTS
 62
     0
100
AcDbPoint
 10
10.01155055674438
 20
8.476499078378139
 30
0.0
  0
POINT
  5
CD
330
C3
100
AcDbEntity
  8
DEFPOINTS
 62
     0
100
AcDbPoint
 10
10.01155055674438
 20
8.973418718090542
 30
0.0
  0
ENDBLK
  5
CF
330
C3
100
AcDbEntity
  8
0
100
AcDbBlockEnd
  0
BLOCK
  5
DC
330
D1
100
AcDbEntity
  8
0
100
AcDbBlockBegin
  2
*D4
 70
     1
 10
0.0
 20
0.0
 30
0.0
  3
*D4
  1

  0
LINE
  5
D2
330
D1
100
AcDbEntity
  8
0
 62
     0
100
AcDbLine
 10
3.715050556744344
 20
8.496499078378121
 30
0.0
 11
1.941318726250802
 21
8.496499078378121
 31
0.0
  0
LINE
  5
D3
330
D1
100
AcDbEntity
  8
0
 62
     0
100
AcDbLine
 10
2.9890505567448
 20
6.763499078377037
 30
0.0
 11
1.941318726250802
 21
6.763499078377038
 31
0.0
  0
LINE
  5
D4
330
D1
100
AcDbEntity
  8
0
 62
     0
100
AcDbLine
 10
2.121318726250802
 20
8.316499078378122
 30
0.0
 11
2.121318726250802
 21
7.809999078377578
 31
0.0
  0
LINE
  5
D5
330
D1
100
AcDbEntity
  8
0
 62
     0
100
AcDbLine
 10
2.121318726250801
 20
6.943499078377037
 30
0.0
 11
2.121318726250802
 21
7.449999078377579
 31
0.0
  0
SOLID
  5
D6
330
D1
100
AcDbEntity
  8
0
 62
     0
100
AcDbTrace
 10
2.091318726250802
 20
8.316499078378122
 30
0.0
 11
2.151318726250802
 21
8.316499078378122
 31
0.0
 12
2.121318726250802
 22
8.496499078378121
 32
0.0
 13
2.121318726250802
 23
8.496499078378121
 33
0.0
  0
SOLID
  5
D7
330
D1
100
AcDbEntity
  8
0
 62
     0
100
AcDbTrace
 10
2.091318726250801
 20
6.943499078377037
 30
0.0
 11
2.151318726250801
 21
6.943499078377037
 31
0.0
 12
2.121318726250801
 22
6.763499078377037
 32
0.0
 13
2.121318726250801
 23
6.763499078377037
 33
0.0
  0
MTEXT
  5
D8
330
D1
100
AcDbEntity
  8
0
 62
     0
100
AcDbMText
 10
2.1213187262508
 20
7.629999078377579
 30
0.0
 40
0.18
 41
0.0
 71
     5
 72
     1
  1
\A1;1.73
1001
ACAD
1000
MTEXTBEGIN
1070
    73
1070
     1
1070
    44
1040
1.0
1070
    74
1070
     0
1000
MTEXTEND
  0
POINT
  5
D9
330
D1
100
AcDbEntity
  8
DEFPOINTS
 62
     0
100
AcDbPoint
 10
3.777550556744344
 20
8.496499078378121
 30
0.0
  0
POINT
  5
DA
330
D1
100
AcDbEntity
  8
DEFPOINTS
 62
     0
100
AcDbPoint
 10
3.0515505567448
 20
6.763499078377037
 30
0.0
  0
POINT
  5
DB
330
D1
100
AcDbEntity
  8
DEFPOINTS
 62
     0
100
AcDbPoint
 10
2.121318726250801
 20
6.763499078377037
 30
0.0
  0
ENDBLK
  5
DD
330
D1
100
AcDbEntity
  8
0
100
AcDbBlockEnd
  0
ENDSEC
  0
SECTION
  2
ENTITIES
  0
TEXT
  5
BF
330
1F
100
AcDbEntity
  8
TX
 48
0.233332
100
AcDbText
 10
2.694418681244931
 20
5.413001785733282
 30
0.0
 40
0.09375
  1
SCALE : 1" = 1"
  7
REG
 11
2.694418681244931
 21
5.506751785733282
 31
0.0
100
AcDbText
 73
     3
  0
TEXT
  5
C0
330
1F
100
AcDbEntity
  8
MAIN
 62
     3
 48
0.233332
100
AcDbText
 10
2.694418681244931
 20
5.694223471095479
 30
0.0
 40
0.140625
  1
2 PART S/F BODY #1927
  7
REG
100
AcDbText
  0
LWPOLYLINE
  5
C1
330
1F
100
AcDbEntity
  8
MAIN
 62
     5
 48
0.233332
100
AcDbPolyline
 90
        2
 70
     0
 43
0.028125
 10
2.600682838563889
 20
5.600487628414381
 10
5.628170985115607
 20
5.600487628414381
  0
DIMENSION
  5
C2
330
1F
100
AcDbEntity
  8
0
100
AcDbDimension
  2
*D3
 10
10.01155055674438
 20
8.973418718090542
 30
0.0
 11
6.511550556744381
 21
8.973418718090542
 31
0.0
 70
    32
  3
STANDARD
100
AcDbAlignedDimension
 13
3.011550556744381
 23
8.404499078379387
 33
0.0
 14
10.01155055674438
 24
8.476499078378139
 34
0.0
100
AcDbRotatedDimension
  0
DIMENSION
  5
D0
330
1F
100
AcDbEntity
  8
0
100
AcDbDimension
  2
*D4
 10
2.121318726250801
 20
6.763499078377037
 30
0.0
 11
2.1213187262508
 21
7.629999078377579
 31
0.0
 70
    32
  3
STANDARD
100
AcDbAlignedDimension
 13
3.777550556744344
 23
8.496499078378121
 33
0.0
 14
3.0515505567448
 24
6.763499078377037
 34
0.0
 50
90.0
100
AcDbRotatedDimension
  0
LWPOLYLINE
  5
164
330
1F
100
AcDbEntity
  8
MAIN
 62
     3
100
AcDbPolyline
 90
      127
 70
     1
 43
0.0
 10
3.84755055674428
 20
8.376499078380049
 42
-0.4142135623697653
 10
3.867550556744262
 20
8.396499078378667
 10
4.406550556744477
 20
8.396499078379576
 42
-0.4142135623647706
 10
4.426550556744345
 20
8.376499078380049
 42
0.4142135623730951
 10
4.446550556744327
 20
8.356499078380068
 10
4.486550556743949
 20
8.356499078380068
 42
0.4142135623747599
 10
4.506550556744045
 20
8.376499078380049
 42
-0.4142135623714302
 10
4.526550556743913
 20
8.396499078380031
 10
5.311550556747519
 20
8.396499078380486
 10
5.326550556744095
 20
8.41149907837763
 10
5.341550556743968
 20
8.396499078377757
 10
8.406550556744932
 20
8.396499078378553
 42
-0.4142135623714302
 10
8.426550556745027
 20
8.376499078380049
 42
0.4142135623730951
 10
8.446550556745009
 20
8.356499078380068
 10
8.486550556744631
 20
8.356499078380011
 42
0.4142135623747599
 10
8.506550556744727
 20
8.376499078380049
 42
-0.4142135623631056
 10
8.526550556744481
 20
8.396499078379122
 10
9.581550556744772
 20
8.396499078379974
 42
-0.4142135623964038
 10
9.591550556744763
 20
8.386499078378903
 10
9.591550556744195
 20
8.101499078377685
 42
-0.4142135623597758
 10
9.581550556744431
 20
8.091499078377466
 10
9.466550556745048
 20
8.091499078377466
 42
1.000000000001421
 10
9.466550556745104
 20
8.01149907837663
 10
9.581550556748979
 20
8.01149907837663
 42
0.4142135623597758
 10
9.691550556744559
 20
8.121499078376302
 10
9.691550556744445
 20
8.346499078380304
 42
-0.4142135623664355
 10
9.701550556744436
 20
8.356499078380522
 10
9.811550556744904
 20
8.356499078380522
 42
-0.4142135623664355
 10
9.821550556744895
 20
8.346499078380304
 10
9.82155055674444
 20
7.236499078378358
 42
-0.4142135623664355
 10
9.81155055674445
 20
7.226499078378139
 10
9.701550556741935
 20
7.226499078378083
 42
-0.414213562356446
 10
9.69155055674183
 20
7.236499078377903
 10
9.691550556741148
 20
7.266499078378558
 42
0.9999999999711269
 10
9.628550556739682
 20
7.266499078379467
 10
9.628550556738773
 20
7.236499078378358
 42
-0.4142135623597758
 10
9.618550556739009
 20
7.226499078378594
 10
9.548550556739186
 20
7.226499078378822
 42
1.000000000000003
 10
9.548550556739186
 20
7.126499078377776
 10
9.811550556744791
 20
7.126499078377776
 42
-0.4142135623664355
 10
9.821550556744782
 20
7.116499078377557
 10
9.821550556744782
 20
6.871499078377212
 42
-0.4142135623864143
 10
9.811550556745018
 20
6.861499078376994
 10
9.67155055674435
 20
6.861499078377221
 42
-0.4142135623697653
 10
9.651550556744368
 20
6.88149907837743
 10
9.651550556744254
 20
6.901499078377867
 42
0.4142135623764248
 10
9.631550556744272
 20
6.921499078377394
 10
9.61155055674429
 20
6.921499078377621
 42
0.4142135623764248
 10
9.591550556744309
 20
6.901499078377867
 10
9.591550556744309
 20
6.871499078377212
 42
-0.4142135623664355
 10
9.58155055674409
 20
6.861499078376994
 10
9.054550556743819
 20
6.861499078376994
 42
1.000000000000003
 10
9.054550556743819
 20
6.76149907837663
 10
9.858550556743225
 20
6.76149907837663
 10
9.858550556743793
 20
6.718499078376964
 42
-0.4142135623664355
 10
9.848550556743802
 20
6.708499078376746
 10
9.820050556744249
 20
6.708499078376746
 42
1.000000000000003
 10
9.820050556744249
 20
6.645499078375735
 10
9.881550556744272
 20
6.645499078375792
 42
0.4142135623764248
 10
9.921550556743667
 20
6.685499078375698
 10
9.921550556744323
 20
8.346499078380304
 42
-0.4142135623697653
 10
9.93155055674434
 20
8.356499078380522
 10
9.991550556744286
 20
8.35649907838097
 42
0.4142135623681004
 10
10.01155055674438
 20
8.376499078380504
 10
10.01155055674438
 20
8.476499078378139
 42
0.4142135623664355
 10
9.9915505567444
 20
8.496499078378121
 10
3.777550556744344
 20
8.496499078377951
 42
0.4142135623681004
 10
3.757550556744362
 20
8.476499078378594
 10
3.757550556744362
 20
8.444499078379351
 42
-0.4142135623597758
 10
3.747550556744599
 20
8.434499078379133
 10
3.517050556744479
 20
8.434499078377882
 42
0.4142135623631056
 10
3.507050556269561
 20
8.42449907837846
 42
-0.4142135623664355
 10
3.497050556269513
 20
8.414499078378241
 10
3.397050556744133
 20
8.414499078378696
 10
3.382050556744488
 20
8.399499078378823
 10
3.36705055674416
 20
8.414499078378696
 10
3.267050557219462
 20
8.41449907837898
 42
-0.4142135623797547
 10
3.257050556744431
 20
8.424499078378914
 42
0.4142135623664356
 10
3.247050556744497
 20
8.434499078379133
 10
3.041550556744013
 20
8.434499078379019
 42
0.4142135623719851
 10
3.011550556744381
 20
8.404499078379387
 10
3.011550556744836
 20
7.436499078378176
 42
-0.4142135623730951
 10
2.971550556744873
 20
7.396499078378212
 10
2.713917208930169
 20
7.396499078378202
 42
-0.2001604496931437
 10
2.703259805545008
 20
7.400943522822689
 42
1.215447433727903
 10
2.675550556743345
 20
7.316499078377376
 10
2.971550556744873
 20
7.316499078377376
 42
-0.4142135623730951
 10
3.011550556744836
 20
7.276499078377412
 10
3.011550556744836
 20
6.803499078377001
 42
0.4142135623730951
 10
3.0515505567448
 20
6.763499078377037
 10
4.095050556743657
 20
6.763499078376128
 42
1.000000000000003
 10
4.095050556743657
 20
6.863499078376491
 10
3.351550556744641
 20
6.863499078377628
 42
-0.4142135623531162
 10
3.341550556744422
 20
6.87349907837671
 10
3.341550556744422
 20
6.903499078377365
 42
0.4142135623697653
 10
3.32155055674444
 20
6.923499078377801
 10
3.301550556744459
 20
6.923499078377574
 42
0.4142135623697653
 10
3.281550556744477
 20
6.903499078377365
 10
3.281550556744363
 20
6.883499078376928
 42
-0.4142135623764248
 10
3.261550556744381
 20
6.863499078377401
 10
3.121550556743713
 20
6.863499078377401
 42
-0.4142135623897441
 10
3.111550556743836
 20
6.873499078377619
 10
3.111550556743949
 20
7.116499078377557
 42
-0.4142135623664355
 10
3.12155055674394
 20
7.126499078377776
 10
3.384550556749545
 20
7.126499078378003
 42
1.000000000000003
 10
3.384550556749545
 20
7.226499078378594
 10
3.314550556749722
 20
7.226499078378992
 42
-0.4142135623597758
 10
3.304550556749845
 20
7.236499078378358
 10
3.304550556749049
 20
7.266499078379467
 42
0.9999999999711269
 10
3.241550556747583
 20
7.266499078378558
 10
3.241550556746901
 20
7.236499078377903
 42
-0.4142135623697653
 10
3.231550556746796
 20
7.226499078378139
 10
3.121550556744281
 20
7.226499078378139
 42
-0.4142135623664355
 10
3.11155055674429
 20
7.236499078378358
 10
3.111550556744063
 20
8.346499078380304
 42
-0.414213562356446
 10
3.121550556743486
 20
8.356499078380522
 10
3.231550556744068
 20
8.356499078380522
 42
-0.4142135623730951
 10
3.241550556744286
 20
8.346499078380304
 10
3.241550556744172
 20
8.121499078376302
 42
0.4142135623597757
 10
3.351550556739752
 20
8.01149907837663
 10
3.466550556743683
 20
8.01149907837663
 42
0.9999999999957365
 10
3.46655055674374
 20
8.091499078377466
 10
3.3515505567443
 20
8.091499078377466
 42
-0.4142135623597758
 10
3.341550556744536
 20
8.101499078377685
 10
3.341550556744593
 20
8.346499078380304
 42
-0.4142135623664355
 10
3.351550556744527
 20
8.356499078380522
 10
3.827550556744299
 20
8.356499078380579
 42
0.4142135623664355
  0
ENDSEC
  0
SECTION
  2
OBJECTS
  0
DICTIONARY
  5
C
330
0
100
AcDbDictionary
  3
ACAD_GROUP
350
D
  3
ACAD_LAYOUT
350
1A
  3
ACAD_MLINESTYLE
350
17
  3
ACAD_PLOTSETTINGS
350
19
  3
ACAD_PLOTSTYLENAME
350
E
  3
ACDBHEADERROUNDTRIPXREC
350
1E5
  0
DICTIONARY
  5
207
330
1F
100
AcDbDictionary
280
     1
  3
ACAD_LAYOUTSELFREF
360
208
  0
DICTIONARY
  5
205
330
1B
100
AcDbDictionary
280
     1
  3
ACAD_LAYOUTSELFREF
360
206
  0
DICTIONARY
  5
D
102
{ACAD_REACTORS
330
C
102
}
330
C
100
AcDbDictionary
  0
DICTIONARY
  5
1A
102
{ACAD_REACTORS
330
C
102
}
330
C
100
AcDbDictionary
  0
DICTIONARY
  5
17
102
{ACAD_REACTORS
330
C
102
}
330
C
100
AcDbDictionary
  3
STANDARD
350
18
  0
DICTIONARY
  5
19
102
{ACAD_REACTORS
330
C
102
}
330
C
100
AcDbDictionary
  0
ACDBDICTIONARYWDFLT
  5
E
102
{ACAD_REACTORS
330
C
102
}
330
C
100
AcDbDictionary
281
     1
  3
Normal
350
F
100
AcDbDictionaryWithDefault
340
F
  0
DICTIONARY
  5
1E5
102
{ACAD_REACTORS
330
C
102
}
330
C
100
AcDbDictionary
  3
CEPSNTYPE
350
1EF
  3
FINGERPRINTGUID
350
1F0
  3
HYPERLINKBASE
350
1E8
  3
INSUNITS
350
1EE
  3
LAYOUTDICT
350
1EA
  3
LWETCUNION
350
1ED
  3
PLOTSETDICT
350
1EB
  3
PLOTSTYLNAMDICT
350
1EC
  3
PSVPSCALE
350
1F2
  3
PUCSBASE
350
1F5
  3
PUCSORGBACK
350
1FB
  3
PUCSORGBOTTOM
350
1F7
  3
PUCSORGFRONT
350
1FA
  3
PUCSORGLEFT
350
1F8
  3
PUCSORGRIGHT
350
1F9
  3
PUCSORGTOP
350
1F6
  3
PUCSORTHOREF
350
1F3
  3
PUCSORTHOVIEW
350
1F4
  3
STYLESHEET
350
1E9
  3
TSTACKALIGN
350
1E6
  3
TSTACKSIZE
350
1E7
  3
UCSBASE
350
1FE
  3
UCSORGBACK
350
204
  3
UCSORGBOTTOM
350
200
  3
UCSORGFRONT
350
203
  3
UCSORGLEFT
350
201
  3
UCSORGRIGHT
350
202
  3
UCSORGTOP
350
1FF
  3
UCSORTHOREF
350
1FC
  3
UCSORTHOVIEW
350
1FD
  3
VERSIONGUID
350
1F1
  0
XRECORD
  5
208
102
{ACAD_REACTORS
330
207
102
}
330
207
100
AcDbXrecord
340
1F
  0
XRECORD
  5
206
102
{ACAD_REACTORS
330
205
102
}
330
205
100
AcDbXrecord
340
1B
  0
MLINESTYLE
  5
18
102
{ACAD_REACTORS
330
17
102
}
330
17
100
AcDbMlineStyle
  2
STANDARD
 70
     0
  3

 62
   256
 51
90.0
 52
90.0
 71
     2
 49
0.5
 62
   256
  6
BYLAYER
 49
-0.5
 62
   256
  6
BYLAYER
  0
ACDBPLACEHOLDER
  5
F
102
{ACAD_REACTORS
330
E
102
}
330
E
100
AcDbPlaceHolder
280
     0
  0
XRECORD
  5
1EF
102
{ACAD_REACTORS
330
1E5
102
}
330
1E5
100
AcDbXrecord
 90
        0
  0
XRECORD
  5
1F0
102
{ACAD_REACTORS
330
1E5
102
}
330
1E5
100
AcDbXrecord
  1
{DC175E3D-AE85-11D5-9A93-0040C77E826B}
  0
XRECORD
  5
1E8
102
{ACAD_REACTORS
330
1E5
102
}
330
1E5
100
AcDbXrecord
  1

  0
XRECORD
  5
1EE
102
{ACAD_REACTORS
330
1E5
102
}
330
1E5
100
AcDbXrecord
 90
        1
  0
XRECORD
  5
1EA
102
{ACAD_REACTORS
330
1E5
102
}
330
1E5
100
AcDbXrecord
340
1A
  0
XRECORD
  5
1ED
102
{ACAD_REACTORS
330
1E5
102
}
330
1E5
100
AcDbXrecord
 90
    10781
  0
XRECORD
  5
1EB
102
{ACAD_REACTORS
330
1E5
102
}
330
1E5
100
AcDbXrecord
340
19
  0
XRECORD
  5
1EC
102
{ACAD_REACTORS
330
1E5
102
}
330
1E5
100
AcDbXrecord
340
E
  0
XRECORD
  5
1F2
102
{ACAD_REACTORS
330
1E5
102
}
330
1E5
100
AcDbXrecord
 40
0.0
  0
XRECORD
  5
1F5
102
{ACAD_REACTORS
330
1E5
102
}
330
1E5
100
AcDbXrecord
340
0
  0
XRECORD
  5
1FB
102
{ACAD_REACTORS
330
1E5
102
}
330
1E5
100
AcDbXrecord
 10
0.0
 20
0.0
 30
0.0
  0
XRECORD
  5
1F7
102
{ACAD_REACTORS
330
1E5
102
}
330
1E5
100
AcDbXrecord
 10
0.0
 20
0.0
 30
0.0
  0
XRECORD
  5
1FA
102
{ACAD_REACTORS
330
1E5
102
}
330
1E5
100
AcDbXrecord
 10
0.0
 20
0.0
 30
0.0
  0
XRECORD
  5
1F8
102
{ACAD_REACTORS
330
1E5
102
}
330
1E5
100
AcDbXrecord
 10
0.0
 20
0.0
 30
0.0
  0
XRECORD
  5
1F9
102
{ACAD_REACTORS
330
1E5
102
}
330
1E5
100
AcDbXrecord
 10
0.0
 20
0.0
 30
0.0
  0
XRECORD
  5
1F6
102
{ACAD_REACTORS
330
1E5
102
}
330
1E5
100
AcDbXrecord
 10
0.0
 20
0.0
 30
0.0
  0
XRECORD
  5
1F3
102
{ACAD_REACTORS
330
1E5
102
}
330
1E5
100
AcDbXrecord
340
0
  0
XRECORD
  5
1F4
102
{ACAD_REACTORS
330
1E5
102
}
330
1E5
100
AcDbXrecord
 70
     0
  0
XRECORD
  5
1E9
102
{ACAD_REACTORS
330
1E5
102
}
330
1E5
100
AcDbXrecord
  1

  0
XRECORD
  5
1E6
102
{ACAD_REACTORS
330
1E5
102
}
330
1E5
100
AcDbXrecord
 90
        1
  0
XRECORD
  5
1E7
102
{ACAD_REACTORS
330
1E5
102
}
330
1E5
100
AcDbXrecord
 90
       70
  0
XRECORD
  5
1FE
102
{ACAD_REACTORS
330
1E5
102
}
330
1E5
100
AcDbXrecord
340
0
  0
XRECORD
  5
204
102
{ACAD_REACTORS
330
1E5
102
}
330
1E5
100
AcDbXrecord
 10
0.0
 20
0.0
 30
0.0
  0
XRECORD
  5
200
102
{ACAD_REACTORS
330
1E5
102
}
330
1E5
100
AcDbXrecord
 10
0.0
 20
0.0
 30
0.0
  0
XRECORD
  5
203
102
{ACAD_REACTORS
330
1E5
102
}
330
1E5
100
AcDbXrecord
 10
0.0
 20
0.0
 30
0.0
  0
XRECORD
  5
201
102
{ACAD_REACTORS
330
1E5
102
}
330
1E5
100
AcDbXrecord
 10
0.0
 20
0.0
 30
0.0
  0
XRECORD
  5
202
102
{ACAD_REACTORS
330
1E5
102
}
330
1E5
100
AcDbXrecord
 10
0.0
 20
0.0
 30
0.0
  0
XRECORD
  5
1FF
102
{ACAD_REACTORS
330
1E5
102
}
330
1E5
100
AcDbXrecord
 10
0.0
 20
0.0
 30
0.0
  0
XRECORD
  5
1FC
102
{ACAD_REACTORS
330
1E5
102
}
330
1E5
100
AcDbXrecord
340
0
  0
XRECORD
  5
1FD
102
{ACAD_REACTORS
330
1E5
102
}
330
1E5
100
AcDbXrecord
 70
     0
  0
XRECORD
  5
1F1
102
{ACAD_REACTORS
330
1E5
102
}
330
1E5
100
AcDbXrecord
  1
{D96F2FAD-2E96-49DB-B2B4-F3EB32D53F7C}
  0
ENDSEC
  0
EOF
